<?xml version="1.0" standalone="no"?>
<!DOCTYPE svg PUBLIC "-//W3C//DTD SVG 1.1//EN" "http://www.w3.org/Graphics/SVG/1.1/DTD/svg11.dtd" >
<svg xmlns="http://www.w3.org/2000/svg" xmlns:xlink="http://www.w3.org/1999/xlink" version="1.1">
<metadata>
Created by FontForge 20160407 at Thu Nov 24 12:20:50 2016
 By Jimmy Warting
</metadata>
<defs>
<font id="FjallaOne-Regular" horiz-adv-x="521" >
  <font-face 
    font-family="Fjalla One"
    font-weight="400"
    font-stretch="normal"
    units-per-em="2048"
    panose-1="2 0 5 6 4 0 0 2 0 4"
    ascent="1638"
    descent="-410"
    bbox="-111 -457 1254 2066"
    underline-thickness="102"
    underline-position="-205"
    unicode-range="U+0110-0237"
  />
<missing-glyph horiz-adv-x="1326" 
d="M105 1943h1116v-1943h-1116v1943zM520 399l87 203l56 158l55 -158l87 -203h224l-265 545l265 537h-236l-85 -205l-47 -138l-45 138l-84 205h-236l264 -536l-264 -546h224z" />
    <glyph glyph-name=".notdef" horiz-adv-x="1326" 
d="M105 1943h1116v-1943h-1116v1943zM520 399l87 203l56 158l55 -158l87 -203h224l-265 545l265 537h-236l-85 -205l-47 -138l-45 138l-84 205h-236l264 -536l-264 -546h224z" />
    <glyph glyph-name=".null" horiz-adv-x="0" 
 />
    <glyph glyph-name="nonmarkingreturn" horiz-adv-x="0" 
 />
    <glyph glyph-name="space" horiz-adv-x="438" 
 />
    <glyph glyph-name="S" horiz-adv-x="956" 
d="M80 346q0 55 6.5 101.5t19.5 100.5h201v-83q0 -69 8.5 -122t28 -89.5t52 -55t79.5 -18.5q74 0 113 40.5t39 118.5q0 40 -5.5 73.5t-19 66.5t-36.5 69.5t-59 81.5l-270 321q-72 92 -111 185.5t-39 199.5q0 85 26.5 156t76.5 122.5t123.5 80t166.5 28.5q113 0 188.5 -32
t120.5 -84t63.5 -116.5t18.5 -129.5q0 -55 -8.5 -101.5t-19.5 -102.5h-200v81q0 136 -39 208.5t-127 72.5q-73 0 -109 -40.5t-36 -108.5q0 -36 5.5 -65t16 -53.5t25.5 -47.5t34 -48l301 -364q82 -107 126 -205.5t44 -208.5q0 -91 -28.5 -164t-81.5 -124t-128 -78.5
t-169 -27.5q-116 0 -192.5 31t-122 82t-64 116t-18.5 133z" />
    <glyph glyph-name="I" horiz-adv-x="551" 
d="M146 1708h259v-1708h-259v1708z" />
    <glyph glyph-name="N" horiz-adv-x="1127" 
d="M146 1708h210l414 -1143h6q-3 40 -8 89t-9 111.5t-7 141.5t-3 178v623h232v-1708h-212l-412 1113h-8q3 -45 8 -97.5t9 -123.5t7 -165.5t3 -224.5v-502h-230v1708z" />
    <glyph glyph-name="s" horiz-adv-x="829" 
d="M76 288q0 45 8.5 87t16.5 67h178q0 -75 7.5 -125.5t24.5 -80.5t45.5 -43t69.5 -13q57 0 83 32t26 74q0 22 -6 42t-17 40.5t-27 41.5t-36 46l-185 218q-36 45 -69.5 91.5t-59 96t-41 103.5t-15.5 114q0 80 27.5 139t74 98t107.5 58t129 19q75 0 135 -18t103 -54t66 -89.5
t23 -124.5q0 -48 -8.5 -93t-16.5 -77h-175q-1 68 -6 119t-18.5 84.5t-37 50.5t-61.5 17q-33 0 -55 -10.5t-35.5 -27.5t-19 -38t-5.5 -43q0 -48 23 -89t61 -89l202 -237q22 -27 51 -65.5t55 -85t44 -101.5t18 -115q0 -73 -23 -132.5t-68 -101.5t-110.5 -65t-149.5 -23
q-69 0 -130 15.5t-106 51t-71 93.5t-26 143z" />
    <glyph glyph-name="k" horiz-adv-x="942" 
d="M134 1819h253v-1047h8l276 605h243l-306 -630l335 -747h-258l-290 683h-8v-683h-253v1819z" />
    <glyph glyph-name="z" horiz-adv-x="703" 
d="M22 126l386 1059h-353v192h624v-126l-387 -1059h389v-192h-659v126z" />
    <glyph glyph-name="Z" horiz-adv-x="865" 
d="M39 137l506 1367h-430v204h721v-137l-507 -1367h477v-204h-767v137z" />
    <glyph glyph-name="J" horiz-adv-x="850" 
d="M351 -16q-96 0 -161 30t-104.5 81.5t-56.5 120.5t-17 146q0 54 7 121.5t21 135.5h207l-3 -208q0 -66 6 -110.5t18.5 -71t32 -38t47.5 -11.5q23 0 41.5 9t31.5 31.5t20 61t7 96.5l3 1330h259v-1294q0 -132 -30 -216t-80.5 -131.5t-115 -65t-133.5 -17.5z" />
    <glyph glyph-name="Y" horiz-adv-x="959" 
d="M349 569l-344 1139h261l209 -817h12l207 817h260l-346 -1139v-569h-259v569z" />
    <glyph glyph-name="K" horiz-adv-x="1005" 
d="M146 1708h259v-746h8l296 746h258l-330 -801l367 -907h-277l-314 813h-8v-813h-259v1708z" />
    <glyph glyph-name="R" horiz-adv-x="1048" 
d="M146 1708h281q48 0 105.5 -4t115 -19.5t111 -46.5t95 -85t66.5 -135.5t25 -197.5v-43q0 -195 -56 -317.5t-165 -176.5l274 -683h-274l-227 639h-97v-639h-254v1708zM439 826q68 0 115 15t76 50.5t42 94t13 144.5v135q0 66 -12 114t-40.5 79t-75.5 46t-118 15h-39v-693h39
z" />
    <glyph glyph-name="dotlessi" 
d="M134 1377h253v-1377h-253v1377z" />
    <glyph glyph-name="dotlessj" unicode="&#x237;" 
d="M134 1377h253v-1461q0 -113 -22.5 -183t-60.5 -109.5t-87 -53.5t-102 -14q-30 0 -61 5t-61 19v147q8 -1 16 -1.5t16 -0.5q22 0 42 8t35 26.5t23.5 49t8.5 75.5v1493z" />
    <glyph glyph-name="r" horiz-adv-x="788" 
d="M130 1377h185l22 -140q42 78 96.5 117t111.5 39q109 0 161 -67t52 -201q0 -17 -2.5 -40.5t-7 -49t-11 -51t-13.5 -46.5h-176v128q0 42 -5.5 69t-14.5 43.5t-21 23t-26 6.5q-30 0 -55.5 -19.5t-42.5 -54.5v-1134h-253v1377z" />
    <glyph glyph-name="kgreenlandic" unicode="&#x138;" horiz-adv-x="959" 
d="M134 1370h253v-643h8l276 643h243l-295 -656l324 -714h-256l-292 639h-8v-639h-253v1370z" />
    <glyph glyph-name="hbar" unicode="&#x127;" horiz-adv-x="1018" 
d="M130 1505h-124v171h124v134h253v-134h221v-171h-221v-17l-13 -229q28 38 60.5 64t67 41.5t70 22t70.5 6.5q121 0 186.5 -85t65.5 -253v-1055h-253v1047q0 90 -28 125.5t-82 35.5q-38 0 -76.5 -27t-67.5 -66v-1115h-253v1505z" />
    <glyph glyph-name="ldot" unicode="&#x140;" horiz-adv-x="767" 
d="M134 1810h253v-1810h-253v1810zM619 712q-62 0 -100.5 46.5t-38.5 131.5q0 47 10 80t28.5 53.5t44 29.5t57.5 9q65 0 98.5 -41.5t33.5 -130.5q0 -83 -33.5 -130.5t-99.5 -47.5z" />
    <glyph glyph-name="lslash" unicode="&#x142;" horiz-adv-x="607" 
d="M175 631l-90 -92l-118 121l208 213v937h252v-679l95 97l118 -122l-213 -218v-888h-252v631z" />
    <glyph glyph-name="Ldot" unicode="&#x13f;" horiz-adv-x="790" 
d="M674 601q-36 0 -63 14t-44.5 37t-26.5 52.5t-9 60.5q0 34 8.5 65.5t26 55.5t44.5 38.5t64 14.5q38 0 66 -14.5t47 -38.5t28 -55.5t9 -65.5q0 -30 -9 -59.5t-28 -52.5t-47 -37.5t-66 -14.5zM146 1708h259v-1504h353v-204h-612v1708z" />
    <glyph glyph-name="Lslash" unicode="&#x141;" horiz-adv-x="773" 
d="M146 560l-104 -81l-118 155l222 178v913h256v-707l197 160l130 -168l-327 -253v-550h354v-207h-610v560z" />
    <glyph glyph-name="acute" horiz-adv-x="687" 
d="M114 1567l290 416l169 -137l-334 -384z" />
    <glyph glyph-name="acute.cap" horiz-adv-x="678" 
d="M114 1850l321 216l129 -167l-345 -166z" />
    <glyph glyph-name="dieresis.cap" horiz-adv-x="948" 
d="M688 1751q-78 0 -107 41.5t-29 116.5q0 39 6.5 68.5t22 49t41.5 29.5t66 10q82 0 114 -38t32 -119q0 -36 -7.5 -65t-24.5 -50t-45 -32t-69 -11zM251 1751q-78 0 -107.5 41.5t-29.5 116.5q0 39 6.5 68.5t22 49t42 29.5t66.5 10q82 0 113.5 -38t31.5 -119q0 -36 -7.5 -65
t-24.5 -50t-44.5 -32t-68.5 -11z" />
    <glyph glyph-name="Ydieresis" unicode="&#x178;" horiz-adv-x="959" 
d="M349 569l-344 1139h261l209 -817h12l207 817h260l-346 -1139v-569h-259v569zM695 1751q-78 0 -107 41.5t-29 116.5q0 39 6.5 68.5t22 49t41.5 29.5t66 10q82 0 114 -38t32 -119q0 -36 -7.5 -65t-24.5 -50t-45 -32t-69 -11zM258 1751q-78 0 -107.5 41.5t-29.5 116.5
q0 39 6.5 68.5t22 49t42 29.5t66.5 10q82 0 113.5 -38t31.5 -119q0 -36 -7.5 -65t-24.5 -50t-44.5 -32t-68.5 -11z" />
    <glyph glyph-name="IJ" unicode="&#x132;" horiz-adv-x="1372" 
d="M146 1708h259v-1708h-259v1708zM895 -16q-96 0 -161 30t-104.5 81.5t-56.5 120.5t-17 146q0 54 7 121.5t21 135.5h207l-3 -208q0 -66 6 -110.5t18.5 -71t32 -38t47.5 -11.5q23 0 41.5 9t31.5 31.5t20 61t7 96.5l3 1330h259v-1294q0 -132 -30 -216t-80.5 -131.5t-115 -65
t-133.5 -17.5z" />
    <glyph glyph-name="Nacute" unicode="&#x143;" horiz-adv-x="1123" 
d="M145 1708h210l414 -1143h6q-3 40 -8 89t-9 111.5t-7 141.5t-3 178v623h232v-1708h-212l-412 1113h-8q3 -45 8 -97.5t9 -123.5t7 -165.5t3 -224.5v-502h-230v1708zM457 1850l321 216l129 -167l-345 -166z" />
    <glyph glyph-name="Racute" unicode="&#x154;" horiz-adv-x="1070" 
d="M146 1708h281q48 0 105.5 -4t115 -19.5t111 -46.5t95 -85t66.5 -135.5t25 -197.5v-43q0 -195 -56 -317.5t-165 -176.5l274 -683h-274l-227 639h-97v-639h-254v1708zM439 826q68 0 115 15t76 50.5t42 94t13 144.5v135q0 66 -12 114t-40.5 79t-75.5 46t-118 15h-39v-693h39
zM468 1850l321 216l129 -167l-345 -166z" />
    <glyph glyph-name="ij" unicode="&#x133;" horiz-adv-x="1032" 
d="M265 1574q-70 0 -110.5 42t-40.5 123q0 45 10.5 75.5t30 49t47.5 27t64 8.5q75 0 114 -38t39 -122q0 -78 -39.5 -121.5t-114.5 -43.5zM134 1377h253v-1377h-253v1377zM776 1574q-70 0 -110.5 42t-40.5 123q0 45 10.5 75.5t30 49t47.5 27t64 8.5q75 0 114 -38t39 -122
q0 -78 -39.5 -121.5t-114.5 -43.5zM645 1377h253v-1461q0 -113 -22.5 -183t-60.5 -109.5t-87 -53.5t-102 -14q-30 0 -61 5t-61 19v147q8 -1 16 -1.5t16 -0.5q22 0 42 8t35 26.5t23.5 49t8.5 75.5v1493z" />
    <glyph glyph-name="nacute" unicode="&#x144;" horiz-adv-x="1021" 
d="M131 1377h195l23 -147v-1q30 47 64.5 78.5t71.5 50.5t75.5 27t76.5 8q121 0 186.5 -84.5t65.5 -253.5v-1055h-253v1046q0 91 -28 126.5t-82 35.5q-38 0 -75.5 -25t-66.5 -69v-1114h-253v1377zM411 1567l290 416l169 -137l-334 -384z" />
    <glyph glyph-name="tilde" horiz-adv-x="975" 
d="M653 1536q-62 0 -106 20t-86 58q-24 21 -40.5 37t-29.5 27t-25 16.5t-27 5.5q-21 0 -32 -17t-11 -47v-72h-178q0 6 -1 17.5t-1.5 24t-1 24t-0.5 16.5q0 70 18 117.5t48.5 76t70.5 40.5t84 12q59 0 99.5 -19.5t80.5 -57.5q13 -12 28.5 -27.5t32 -29t33 -22.5t32.5 -9
q22 0 36 14t14 45v87h159q6 -35 8.5 -61t2.5 -45q0 -57 -17.5 -100.5t-46 -72.5t-66.5 -43.5t-78 -14.5z" />
    <glyph glyph-name="tilde.cap" horiz-adv-x="975" 
d="M653 1729q-62 0 -106 17.5t-86 51.5q-24 21 -40.5 37t-29.5 27t-25 16.5t-27 5.5q-21 0 -32 -17t-11 -47v-72h-178q0 6 -1 17.5t-1.5 24t-1 23.5t-0.5 16q0 67 18 112.5t48.5 73.5t70.5 39.5t84 11.5q59 0 99.5 -17t80.5 -50q13 -12 28.5 -27.5t32 -29t33 -22.5t32.5 -9
q22 0 36 14t14 44v78h159q6 -36 8.5 -61.5t2.5 -44.5q0 -52 -17.5 -91.5t-46 -66.5t-66.5 -40.5t-78 -13.5z" />
    <glyph glyph-name="circumflex" horiz-adv-x="948" 
d="M527 1697l-51 172l-50 -172l-94 -212h-218l270 581h174l276 -581h-219z" />
    <glyph glyph-name="circumflex.cap" horiz-adv-x="958" 
d="M526 1886l-40 56l-40 -56l-84 -130h-248l250 310h234l246 -310h-249z" />
    <glyph glyph-name="Itilde" unicode="&#x128;" horiz-adv-x="551" 
d="M146 1708h259v-1708h-259v1708zM441 1729q-62 0 -106 17.5t-86 51.5q-24 21 -40.5 37t-29.5 27t-25 16.5t-27 5.5q-21 0 -32 -17t-11 -47v-72h-178q0 6 -1 17.5t-1.5 24t-1 23.5t-0.5 16q0 67 18 112.5t48.5 73.5t70.5 39.5t84 11.5q59 0 99.5 -17t80.5 -50
q13 -12 28.5 -27.5t32 -29t33 -22.5t32.5 -9q22 0 36 14t14 44v78h159q6 -36 8.5 -61.5t2.5 -44.5q0 -52 -17.5 -91.5t-46 -66.5t-66.5 -40.5t-78 -13.5z" />
    <glyph glyph-name="Eth" horiz-adv-x="1037" 
d="M128 817h-85v202h85v706h278q48 0 106.5 -5t118 -23.5t115.5 -56.5t99.5 -104.5t69.5 -165.5t26 -241v-523q0 -144 -26 -245.5t-69.5 -168.5t-99.5 -105.5t-115.5 -58t-118 -24t-106.5 -4.5h-278v817zM418 180q69 0 117.5 22.5t79 69t44 117.5t13.5 169v591
q0 91 -12.5 160.5t-42 116t-78.5 70t-121 23.5h-31v-500h158v-202h-158v-637h31z" />
    <glyph glyph-name="caron" horiz-adv-x="948" 
d="M384 1485l-270 581h218l94 -212l50 -171l51 171l88 212h219l-276 -581h-174z" />
    <glyph glyph-name="caron.cap" horiz-adv-x="958" 
d="M364 1756l-250 310h248l84 -130l40 -56l40 56l69 130h249l-246 -310h-234z" />
    <glyph glyph-name="rcaron" unicode="&#x159;" horiz-adv-x="792" 
d="M134 1377h185l22 -140q42 78 96.5 117t111.5 39q109 0 161 -67t52 -201q0 -17 -2.5 -40.5t-7 -49t-11 -51t-13.5 -46.5h-176v128q0 42 -5.5 69t-14.5 43.5t-21 23t-26 6.5q-30 0 -55.5 -19.5t-42.5 -54.5v-1134h-253v1377zM390 1485l-270 581h218l94 -212l50 -171l51 171
l88 212h219l-276 -581h-174z" />
    <glyph glyph-name="Rcaron" unicode="&#x158;" horiz-adv-x="1070" 
d="M146 1708h281q48 0 105.5 -4t115 -19.5t111 -46.5t95 -85t66.5 -135.5t25 -197.5v-43q0 -195 -56 -317.5t-165 -176.5l274 -683h-274l-227 639h-97v-639h-254v1708zM439 826q68 0 115 15t76 50.5t42 94t13 144.5v135q0 66 -12 114t-40.5 79t-75.5 46t-118 15h-39v-693h39
zM453 1756l-250 310h248l84 -130l40 -56l40 56l69 130h249l-246 -310h-234z" />
    <glyph glyph-name="itilde" unicode="&#x129;" 
d="M134 1377h253v-1377h-253v1377zM428 1587q-62 0 -106 20t-86 58q-24 21 -40.5 37t-29.5 27t-25 16.5t-27 5.5q-21 0 -32 -17t-11 -47v-72h-178q0 6 -1 17.5t-1.5 24t-1 24t-0.5 16.5q0 70 18 117.5t48.5 76t70.5 40.5t84 12q59 0 99.5 -19.5t80.5 -57.5
q13 -12 28.5 -27.5t32 -29t33 -22.5t32.5 -9q22 0 36 14t14 45v87h159q6 -35 8.5 -61t2.5 -45q0 -57 -17.5 -100.5t-46 -72.5t-66.5 -43.5t-78 -14.5z" />
    <glyph glyph-name="jcircumflex" unicode="&#x135;" 
d="M134 1377h253v-1461q0 -113 -22.5 -183t-60.5 -109.5t-87 -53.5t-102 -14q-30 0 -61 5t-61 19v147q8 -1 16 -1.5t16 -0.5q22 0 42 8t35 26.5t23.5 49t8.5 75.5v1493zM319 1697l-51 172l-50 -172l-94 -212h-218l270 581h174l276 -581h-219z" />
    <glyph glyph-name="Jcircumflex" unicode="&#x134;" horiz-adv-x="831" 
d="M354 -16q-96 0 -161 30t-104.5 81.5t-56.5 120.5t-17 146q0 54 7 121.5t21 135.5h207l-3 -208q0 -66 6 -110.5t18.5 -71t32 -38t47.5 -11.5q23 0 41.5 9t31.5 31.5t20 61t7 96.5l3 1330h259v-1294q0 -132 -30 -216t-80.5 -131.5t-115 -65t-133.5 -17.5zM625 1886l-40 56
l-40 -56l-84 -130h-248l250 310h234l246 -310h-249z" />
    <glyph glyph-name="commaaccent" horiz-adv-x="531" 
d="M417 -23l-108 -434h-195l62 434h241z" />
    <glyph glyph-name="rcommaaccent" unicode="&#x157;" horiz-adv-x="792" 
d="M134 1377h185l22 -140q42 78 96.5 117t111.5 39q109 0 161 -67t52 -201q0 -17 -2.5 -40.5t-7 -49t-11 -51t-13.5 -46.5h-176v128q0 42 -5.5 69t-14.5 43.5t-21 23t-26 6.5q-30 0 -55.5 -19.5t-42.5 -54.5v-1134h-253v1377zM397 -23l-108 -434h-195l62 434h241z" />
    <glyph glyph-name="Kcommaaccent" unicode="&#x136;" horiz-adv-x="1021" 
d="M146 1708h259v-746h8l296 746h258l-330 -801l367 -907h-277l-314 813h-8v-813h-259v1708zM725 -23l-108 -434h-195l62 434h241z" />
    <glyph glyph-name="Rcommaaccent" unicode="&#x156;" horiz-adv-x="1070" 
d="M146 1708h281q48 0 105.5 -4t115 -19.5t111 -46.5t95 -85t66.5 -135.5t25 -197.5v-43q0 -195 -56 -317.5t-165 -176.5l274 -683h-274l-227 639h-97v-639h-254v1708zM439 826q68 0 115 15t76 50.5t42 94t13 144.5v135q0 66 -12 114t-40.5 79t-75.5 46t-118 15h-39v-693h39
zM722 -23l-108 -434h-195l62 434h241z" />
    <glyph glyph-name="kcommaaccent" unicode="&#x137;" horiz-adv-x="960" 
d="M134 1819h253v-1047h8l276 605h243l-306 -630l335 -747h-258l-290 683h-8v-683h-253v1819zM713 -23l-108 -434h-195l62 434h241z" />
    <glyph glyph-name="Zcaron" unicode="&#x17d;" horiz-adv-x="865" 
d="M39 137l506 1367h-430v204h721v-137l-507 -1367h477v-204h-767v137zM364 1756l-250 310h248l84 -130l40 -56l40 56l69 130h249l-246 -310h-234z" />
    <glyph glyph-name="zcaron" unicode="&#x17e;" horiz-adv-x="697" 
d="M20 126l386 1059h-353v192h624v-126l-387 -1059h389v-192h-659v126zM259 1485l-270 581h218l94 -212l50 -171l51 171l88 212h219l-276 -581h-174z" />
    <glyph glyph-name="scaron" unicode="&#x161;" horiz-adv-x="820" 
d="M72 288q0 45 8.5 87t16.5 67h178q0 -75 7.5 -125.5t24.5 -80.5t45.5 -43t69.5 -13q57 0 83 32t26 74q0 22 -6 42t-17 40.5t-27 41.5t-36 46l-185 218q-36 45 -69.5 91.5t-59 96t-41 103.5t-15.5 114q0 80 27.5 139t74 98t107.5 58t129 19q75 0 135 -18t103 -54t66 -89.5
t23 -124.5q0 -48 -8.5 -93t-16.5 -77h-175q-1 68 -6 119t-18.5 84.5t-37 50.5t-61.5 17q-33 0 -55 -10.5t-35.5 -27.5t-19 -38t-5.5 -43q0 -48 23 -89t61 -89l202 -237q22 -27 51 -65.5t55 -85t44 -101.5t18 -115q0 -73 -23 -132.5t-68 -101.5t-110.5 -65t-149.5 -23
q-69 0 -130 15.5t-106 51t-71 93.5t-26 143zM330 1485l-270 581h218l94 -212l50 -171l51 171l88 212h219l-276 -581h-174z" />
    <glyph glyph-name="Scaron" unicode="&#x160;" horiz-adv-x="946" 
d="M76 346q0 55 6.5 101.5t19.5 100.5h201v-83q0 -69 8.5 -122t28 -89.5t52 -55t79.5 -18.5q74 0 113 40.5t39 118.5q0 40 -5.5 73.5t-19 66.5t-36.5 69.5t-59 81.5l-270 321q-72 92 -111 185.5t-39 199.5q0 85 26.5 156t76.5 122.5t123.5 80t166.5 28.5q113 0 188.5 -32
t120.5 -84t63.5 -116.5t18.5 -129.5q0 -55 -8.5 -101.5t-19.5 -102.5h-200v81q0 136 -39 208.5t-127 72.5q-73 0 -109 -40.5t-36 -108.5q0 -36 5.5 -65t16 -53.5t25.5 -47.5t34 -48l301 -364q82 -107 126 -205.5t44 -208.5q0 -91 -28.5 -164t-81.5 -124t-128 -78.5
t-169 -27.5q-116 0 -192.5 31t-122 82t-64 116t-18.5 133zM358 1756l-250 310h248l84 -130l40 -56l40 56l69 130h249l-246 -310h-234z" />
    <glyph glyph-name="florin" unicode="&#x192;" horiz-adv-x="616" 
d="M153 961h-115v192h115v323q0 112 23.5 182.5t65 110t96.5 53.5t118 14q18 0 40.5 -2t45 -6.5t44 -10.5t38.5 -15v-178q-42 11 -94 11q-25 0 -47.5 -8t-39.5 -26.5t-27 -49t-10 -75.5v-323h201v-192h-201v-1020q0 -112 -23.5 -182.5t-65 -110t-96.5 -53.5t-118 -14
q-18 0 -40.5 2t-45 6.5t-44 10.5t-38.5 15v178q42 -11 94 -11q25 0 47.5 8t39.5 26.5t27 49t10 75.5v1020z" />
    <glyph glyph-name="dotaccent" horiz-adv-x="533" 
d="M265 1574q-70 0 -110.5 42t-40.5 123q0 45 10.5 75.5t30 49t47.5 27t64 8.5q75 0 114 -38t39 -122q0 -78 -39.5 -121.5t-114.5 -43.5z" />
    <glyph glyph-name="Zacute" unicode="&#x179;" horiz-adv-x="865" 
d="M39 137l506 1367h-430v204h721v-137l-507 -1367h477v-204h-767v137zM378 1850l321 216l129 -167l-345 -166z" />
    <glyph glyph-name="Dcroat" unicode="&#x110;" horiz-adv-x="1037" 
d="M128 817h-85v202h85v706h278q48 0 106.5 -5t118 -23.5t115.5 -56.5t99.5 -104.5t69.5 -165.5t26 -241v-523q0 -144 -26 -245.5t-69.5 -168.5t-99.5 -105.5t-115.5 -58t-118 -24t-106.5 -4.5h-278v817zM418 180q69 0 117.5 22.5t79 69t44 117.5t13.5 169v591
q0 91 -12.5 160.5t-42 116t-78.5 70t-121 23.5h-31v-500h158v-202h-158v-637h31z" />
    <glyph glyph-name="n" horiz-adv-x="1020" 
d="M130 1377h195l23 -147v-1q30 47 64.5 78.5t71.5 50.5t75.5 27t76.5 8q121 0 186.5 -84.5t65.5 -253.5v-1055h-253v1046q0 91 -28 126.5t-82 35.5q-38 0 -75.5 -25t-66.5 -69v-1114h-253v1377z" />
  </font>
</defs>
</svg>
